Digital Artcore
Поиск по сайту
сейчас слушаю
Messiah 'Hallelujah Chorus'
Georg Friedrich Händel
101 Classical Greats
2 hours ago
Symphony No. 9, In E Minor, Op. 95 ('From The New World') Scherzo, Molto vivace
Antonín Dvořák
101 Classical Greats
2 hours ago
My Country ('The Moldau River')
Bedřich Smetana
101 Classical Greats
2 hours ago
Peter Gynt Suite No. 1, Op, 46 ('Morning Mood')
Edvard Grieg
101 Classical Greats
2 hours ago
Scenes From Childhood, Op. 15 ('Traumerei)
Robert Schumann
101 Classical Greats
2 hours ago

Как измерить динамический диапазон и построить спектрограмму аудио на macOS

В продолжение поста о последнем альбоме горячо любимой группы Мельница. Решил не редактировать старый пост, а написать новый, может кому пригодиться информация о «задротском» способе измерении качества аудио на macOS.

Сначала про альбом «Химера». Сама музыка очень понравились, слушал много раз на телефоне, компьютере и своей основной музыкальной системе. Специально слушал на комбинации Audiolab M-DAC + Sennheiser HD 600. Сравнивал звучание SD и HD версий. Сделал два вывода:

  1. В данном случае какой-то значимой разницы между SD и HD версиями не услышал
  2. Работа звукорежиссера этого, впрочем как и всех остальных номерных альбомов группы Мельница мне не нравиться. Я не использую слово «плохой» просто потому что это мое личное мнение, вполне возможно это я глухой и тупой, но факт остается фактом — у группы Мельница на всех альбомах прекрасная музыка сведена совсем не так, как хотелось бы лично мне. Поняли, какой я дипломатичный?

По первому пункту. Построил спектрограмму, нашел хорошую и бесплатную программу на мак — Spek. Стандартная версия упирается в 22kHz:

Хайрез версия доходит до 25kHz с редкими пиками до 48Khz:

Такая же картина и на остальных треках — SD качество стабильно оканчивается на 22 kHz, HD на 25-ти и всплески до 48 kHz.

По второму пункту реально можно придраться и попинать запись/мастеринг за динамический диапазон. Для замеров использовал еще одну симпатичную бесплатную утилиту TT DR Offline Meter:

Утилитка маленькая, но делает все что нужно — меряет DR у отдельных файлов, либо у папки, на выходе стандартный отчет:

----------------------------------------------------------------------------------------------
 Analyzed folder: /Volumes/MacOS DATA 3/Mel'nitsa_-_Himera_(2016)_Hi-Res
----------------------------------------------------------------------------------------------
 DR Peak RMS Filename
----------------------------------------------------------------------------------------------

 DR5 -0.85 dB -8.05 dB 01_Bes_Dzhigi.wav
 DR6 -0.98 dB -8.32 dB 02_Golubaya_Trava.wav
 DR7 -1.05 dB -10.28 dB 03_Izol'da.wav
 DR6 -1.00 dB -8.91 dB 04_Cherniy_Drozd.wav
 DR6 -1.00 dB -8.88 dB 05_Volch'ya_Luna.wav
 DR7 -1.00 dB -9.74 dB 06_Kitsune.wav
 DR5 -1.00 dB -8.28 dB 07_Lyubov'_Vo_Vremya_Zimy.wav
 DR5 -1.04 dB -8.72 dB 08_Obryad.wav
 DR5 -1.00 dB -8.54 dB 09_Koleso.wav
 DR5 -1.00 dB -8.42 dB 10_Vitrazh.wav
 DR9 -1.96 dB -13.57 dB 11_Spisok_Korabley.wav
----------------------------------------------------------------------------------------------

Number of files: 11
 Official DR value: DR6

==============================================================================================

Есть чудаки, которые вместо прослушивания музыки, сначала смотрят на качество записи по циферкам и только потом решают, достойна ли сворованная с торрента запись их высочайшего внимания 🙂 Мне как раз важнее музыка, но все же расстраивает немного что такая группа, как Мельница не заслужила человека, который бы записал и обработал их песни более бережно.

И в конце — ссылки на программы:

Spek: spec.cc (есть версии для macOS, Windows и Linux)

TT DR Offline Meter: www.dynamicrange.de (версии для macOS и Windows)

 

Top! © Digital Artcore. All rights reserved.
Social Links:
GOOGLEPLUS
FACEBOOK
TWITTER
Real time web analytics, Wordpress visitor counter, Wordpress visitor tracking